Pegar imágenes en el foro, mediante equipos móviles ×
Saltar al contenido
×
×
  • Crear Nuevo...

Como separar pistas de Audio de un FLAC Y UN CUE


Recommended Posts

Como dato extra, yo el flac completo lo paso primero a wav, luego lo separo en pistas con el .cue y luego cada pista wav la convierto a flac. Si separo directo el flac se pierde la información de comprobación del archivo y algunos programas lo detectan como dañado y según el software se puede escuchar un pequeño 'click'.

Enlace al mensaje
Compartir en otros sitios
hace 33 minutos, Peter dijo:

Como dato extra, yo el flac completo lo paso primero a wav, luego lo separo en pistas con el .cue y luego cada pista wav la convierto a flac. Si separo directo el flac se pierde la información de comprobación del archivo y algunos programas lo detectan como dañado y según el software se puede escuchar un pequeño 'click'.

Y al convertirlos a wav no pierde calidad el archivo??

Enlace al mensaje
Compartir en otros sitios
Y al convertirlos a wav no pierde calidad el archivo??

Nop, el wav al igual que el flac son lossless, formatos sin pérdida.

Enviado desde mi SM-G903M mediante Tapatalk

Enlace al mensaje
Compartir en otros sitios

En linux, se deben tener instalados los paquetes cuetools shntools flac.

En el terminal , se ejecuta:

cuebreakpoints fichero.cue | shnsplit -o flac fichero.flac . 
Si los nombres de los archivos traen espacios, estos deben ir entre comillas "fichero audio.cue" "fichero audio.flac".

Por ejemplo:

bash-4.3$ cuebreakpoints Gary_Moore-We_Want_Moore.cue | shnsplit -o flac Gary_Moore-We_Want_Moore.flac
Splitting [Gary_Moore-We_Want_Moore.flac] (72:47.20) --> [split-track01.flac] (5:33.72) : 100% OK
Splitting [Gary_Moore-We_Want_Moore.flac] (72:47.20) --> [split-track02.flac] (8:14.70) : 100% OK
Splitting [Gary_Moore-We_Want_Moore.flac] (72:47.20) --> [split-track03.flac] (8:25.33) : 100% OK
Splitting [Gary_Moore-We_Want_Moore.flac] (72:47.20) --> [split-track04.flac] (10:25.12) : 100% OK
Splitting [Gary_Moore-We_Want_Moore.flac] (72:47.20) --> [split-track05.flac] (4:33.53) : 100% OK
Splitting [Gary_Moore-We_Want_Moore.flac] (72:47.20) --> [split-track06.flac] (5:21.22) : 100% OK
Splitting [Gary_Moore-We_Want_Moore.flac] (72:47.20) --> [split-track07.flac] (2:38.58) : 100% OK
Splitting [Gary_Moore-We_Want_Moore.flac] (72:47.20) --> [split-track08.flac] (8:31.50) : 100% OK
Splitting [Gary_Moore-We_Want_Moore.flac] (72:47.20) --> [split-track09.flac] (5:43.25) : 100% OK
Splitting [Gary_Moore-We_Want_Moore.flac] (72:47.20) --> [split-track10.flac] (6:15.10) : 100% OK
Splitting [Gary_Moore-We_Want_Moore.flac] (72:47.20) --> [split-track11.flac] (7:03.65) : 100% OK

 

Editado por el_mitico
Enlace al mensaje
Compartir en otros sitios
hace 35 minutos, lnx dijo:

Pasa que, para hacer el split del archivo, necesitas el .cue, el cual contiene TODA la informacion que NO necesita buscar, pues ya esta. :rolleyes:

Exacto.  Del ejemplo anterior el archivo .cue contiene:

REM GENRE "Hard Rock"
REM DATE 1984
REM DISCID 94110F0B
REM COMMENT "ExactAudioCopy v0.95b4"
CATALOG 0724358357622
PERFORMER "Gary Moore"
TITLE "We Want Moore! (Digital Remaster)"
FILE "Gary Moore - We Want Moore! (Digital Remaster).wav" WAVE
  TRACK 01 AUDIO
    TITLE "Murder In The Skies"
    PERFORMER "Gary Moore"
    ISRC GBAAA0200777
    INDEX 01 00:00:00
  TRACK 02 AUDIO
    TITLE "Shapes Of Things"
    PERFORMER "Gary Moore"
    ISRC GBAAA0200778
    INDEX 01 05:33:72
  TRACK 03 AUDIO
    TITLE "Victims Of The Future"
    PERFORMER "Gary Moore"
    ISRC GBAAA0200779
    INDEX 01 13:48:67
  TRACK 04 AUDIO
    TITLE "Cold Hearted"
    PERFORMER "Gary Moore"
    ISRC GBAAA0200780
    INDEX 01 22:14:25
  TRACK 05 AUDIO
    TITLE "End Of The World"
    PERFORMER "Gary Moore"
    ISRC GBAAA0200781
    INDEX 01 32:39:37
  TRACK 06 AUDIO
    TITLE "Back On The Streets"
    PERFORMER "Gary Moore"
    ISRC GBAAA0200782
    INDEX 01 37:13:15
  TRACK 07 AUDIO
    TITLE "So Far Away"
    PERFORMER "Gary Moore"
    ISRC GBAAA0200783
    INDEX 00 42:34:23
    INDEX 01 42:34:37
  TRACK 08 AUDIO
    TITLE "Empty Rooms"
    PERFORMER "Gary Moore"
    ISRC GBAAA0200784
    INDEX 01 45:13:20
  TRACK 09 AUDIO
    TITLE "Don't Take Me For A Loser"
    PERFORMER "Gary Moore"
    ISRC GBAAA0200785
    INDEX 01 53:44:70
  TRACK 10 AUDIO
    TITLE "Rockin' And Rollin'"
    PERFORMER "Gary Moore"
    ISRC GBAAA0200786
    INDEX 01 59:28:20
  TRACK 11 AUDIO
    TITLE "Parisienne Walkways (Live)"
    PERFORMER "Gary Moore"
    ISRC GBAAA0200787
    INDEX 00 65:37:46
    INDEX 01 65:43:30

 

Enlace al mensaje
Compartir en otros sitios
hace 4 horas, htito dijo:

A ver si ayuda un poquito, por supuesto cambiar la parte donde dice "  nombre-album " . Aun se puede seguir arreglando o simplificando.

shnsplit -f nombre-album.cue -t "%n %t" -o flac nombre-album.flac ; mv nombre-album.flac original ; cuetag nombre-album.cue *.flac ; mv original nombre-album.flac

Gracias por la ayuda.

Me faltaba agregar el cuetag o cuetag.sh según la distro, para llenar el id tag de los archivos como se menciona aquí.

En mi caso sería:

cuetag.sh Gary_Moore-We_Want_Moore.cue split-track*.flac

La opción -f nombre-album.cue -t "%n %t"  para nombrar los archvos funciona impeque, la tendré dentro mis tips.

Agrego la opción   shnsplit -d carpeta_de_destino para guardar en una carpeta diferente los archivos generados.

Editado por el_mitico
Enlace al mensaje
Compartir en otros sitios

Join the conversation

You can post now and register later. If you have an account, sign in now to post with your account.

Invitado
Responder en este tema...

×   Pasted as rich text.   Paste as plain text instead

  Only 75 emoji are allowed.

×   Your link has been automatically embedded.   Display as a link instead

×   Your previous content has been restored.   Clear editor

×   You cannot paste images directly. Upload or insert images from URL.