Saltar al contenido
Pegar imágenes en el foro, mediante equipos móviles ×

MK802 Android 4.0 Mini PC 1G DDR3


lnx

Recommended Posts

Compre este aparato el 21 de Junio, llego el 30 de Julio, con la intencion de hacer un invento o implementacion
que ya no resulto debido a que el dispositivo presenta problemas con la conexion wifi, la cual era crucial para
el proposito original, sin embargo, de todas formas comentare algunas cosas referentes al juguete mientras espero
respuesta del soporte de la tienda en la cual lo compre.

Caracteristicas segun vendedor
[img]http://i48.tinypic.com/2zqg7s1.png[/img]


[img]http://i49.tinypic.com/2di0cnc.jpg[/img]


[img]http://i47.tinypic.com/dzbar8.jpg[/img]


[img]http://i45.tinypic.com/2vtcq6u.jpg[/img]Puerto hdmi (mini), al cual se conecta el cable adaptador que va al televisor (hdmi / mini hdmi)
largo aproximado de 1mt.


[img]http://i49.tinypic.com/2605veu.jpg[/img]Puerto mini usb (OTG), puede ser utilizado como un puerto usb "normal" mediante un adaptador que viene incluido,
es decir, se dispone de dos puertos usb (sin considerar el posible uso de un hub usb), tambien viene incluido un
cable usb / mini usb B.


[img]http://i48.tinypic.com/2hi9ggl.jpg[/img]Puerto usb (host) y enchufe de poder (fuente de poder 5V@2A incluida).


[img]http://i48.tinypic.com/33kypar.jpg[/img]Ranura para memoria micro SD, la cual al insertarla queda totalmente oculta.


Se conecto el aparato a uno de los puertos hdmi del televisor, se le conecto un telcado/mouse inalambrico, se le
enchufa la fuente de alimentacion y comienza el booteo, desconozco los tiempos ya que solo se realizo esta prueba
para comprobar su funcionamiento, aparecen los menues de android, lo UNICO que funciono luego de configurar la
conexion wifi, fue que la hora se sincronizo sola, pero en cuanto a navegar fue imposible, no cargo ni la pagina
de inicio de google, en cuanto a los videos de youtube menos aun, no funciono.
Rapidamente puse en una micro sd, un flac, mp3, video del ipod (720p), video mp4 de youtube (720p), foto, todos
los archivos se reproducen sin problemas, queda pendiente comprobar videos 1080p.

En una memoria micro sd de 8GB se copia una imagen de linux, se inserta en el dispositivo, se energiza y comienza
el booteo, el cual demoro aproximadamente 90 segundos hasta que aparece el entorno grafico y pide contrase~a, esto
sin duda se debe a la clase de la memoria (clase 4), ya que la copia de la imagen a la memoria tomo 25 minutos.

[code]# time dd if=lubuntu-desktop-12.04-4-1080p-1GB-miniand.com.img of=/dev/sdh
7202816+0 records in
7202816+0 records out
3687841792 bytes (3.7 GB) copied, 1524.92 s, 2.4 MB/s

real 25m24.946s
user 0m2.888s
sys 0m40.603s[/code]

Una vez en linux se comprueba que efectivamente el problema wifi es del dispositivo y no de configuracion, ya que
se repite el problema de la conexion una vez configurada. La idea fue desinstalar todo el entorno grafico del S.O.
xorg*, sylp*, gnome*, xfce*, esound*, print* y varias cosas mas, se comprobo que al "rebootear" se iniciase la
conexion wifi y que estuviese el daemon sshd corriendo y se desconecto del televisor para usarlo headless y
administrarlo via ssh, lo cual resulta pesimo ya que la conexion wifi al menos en linux podriamos decir que es
"intermitente" y hay que esperar mucho para que se escriba un comando o aparezca el output del mismo; [b]inusable[/b].

Se ve el tipo de procesador.
[code]# cat /proc/cpuinfo
Processor : ARMv7 Processor rev 2 (v7l)
BogoMIPS : 1001.88
Features : swp half thumb fastmult vfp edsp neon vfpv3
CPU implementer : 0x41
CPU architecture: 7
CPU variant : 0x3
CPU part : 0xc08
CPU revision : 2

Hardware : sun4i
Revision : 0000
Serial : 0000000000000000[/code]

Se ve algo referente al audio.
[code]# cat /proc/asound/cards
0 [sun4icodec ]: sun4i-CODEC - sun4i-CODEC
sun4i-CODEC Audio Codec
1 [sun4isndhdmi ]: sun4i-sndhdmi - sun4i-sndhdmi
sun4i-sndhdmi
[/code]

Algo sobre la memoria ram.
[code][ 0.000000] Total Detected Memory: 1024MB with 2 banks[/code]
sin embargo, mediante el uso de "free" o "top" aparece menos cantidad de ram, asumo que esta siendo
utilizada por el video.


Cuando tenga un dispositivo en buenas condiciones, si es que lo llego a tener, pondre algunos nuevos datos,
ya sea de android (default) o con linux.
Dato interesante es que el dispositivo puede ser alimentado desde el puerto usb del televisor utilizando el
cable para el mini usb.
El juguete me costo $79.99 dolares free shipping, ahora esta a $64.88, lamentablemente lo compre cuando recien
llego stock de la version de 1GB en ram, antes de eso era solo "pre venta".
Por cierto, dejo al direccion http://lightake.com/detail.do/sku.MK802_Android_4.0_Mini_PC_1G_DDR3_4GB_A10_Cortex_A8_Google_TV_Player_Black_In_Stock_-54773

Aun no se descarta la compra de una placa Raspberry Pi.


Sin duda que la idea original era presentar algo terminado y funcionando, pretendia hacerlo con algunos diagramas
para facilitar la comprension, pero basicamente es lo antes expuesto, vale decir, el mini pc corriendo linux, actuando
como music server, el cual a su vez estaria conectado via usb al DAC (el mio xiangsheng, esta desde el 19 de Julio en
proceso aduanero, por eso no pude usarlo, ya contacte a correos chile, quienes hicieron el reclamo a aduanas) y toda
la musica seria servida via NFS; todo lo anterior "en el papel" es facil implementarlo pero aun no puedo hacerlo
como queria, para luego exponerlo a uds.

Tratando de instalar mpd, un verdadero parto, ha de llevar mas de una hora y aun esta instalando dependencias...


Saludos, lnx.

Enlace al comentario
Compartir en otros sitios

Hoy probe el dispositivo con el S.O. que trae por defecto, le conecte un disco duro externo de 320GB
y probe los siguientes archivos para saber si se la podia con archivos HD.

ADELE.iTunes.Festival.London.2011.live.720p.mp4
[spoiler]General
Complete name : ADELE.iTunes.Festival.London.2011.live.720p.mp4
Format : MPEG-4
Format profile : Base Media
Codec ID : isom
File size : 3.03 GiB
Duration : 1h 25mn
Overall bit rate : 5 088 Kbps
Writing application : Lavf53.4.0

Video
ID : 1
Format : AVC
Format/Info : Advanced Video Codec
Format profile : Main@L3.1
Format settings, CABAC : Yes
Format settings, ReFrames : 1 frame
Codec ID : avc1
Codec ID/Info : Advanced Video Coding
Duration : 1h 25mn
Bit rate : 4 955 Kbps
Width : 1 280 pixels
Height : 720 pixels
Display aspect ratio : 16:9
Frame rate mode : Constant
Frame rate : 25.000 fps
Color space : YUV
Chroma subsampling : 4:2:0
Bit depth : 8 bits
Scan type : Progressive
Bits/(Pixel*Frame) : 0.215
Stream size : 2.95 GiB (97%)

Audio
ID : 2
Format : AAC
Format/Info : Advanced Audio Codec
Format profile : LC
Codec ID : 40
Duration : 1h 25mn
Bit rate mode : Constant
Bit rate : 128 Kbps
Channel(s) : 2 channels
Channel positions : Front: L R
Sampling rate : 48.0 KHz
Compression mode : Lossy
Stream size : 78.0 MiB (3%)
[/spoiler]
No fue reproducido de forma correcta, si se escuchaba el audio, mas no el video.



amy_winehouse__live_from_shepherd\'s_bush_empire_london_2007.mkv
[spoiler]General
Unique ID : 253295847127509694598886996382183224833 (0xBE8F01740F47864C8FFF74A5136E7601)
Complete name : amy_winehouse__live_from_shepherd's_bush_empire_london_2007.mkv
Format : Matroska
Format version : Version 2
File size : 5.16 GiB
Duration : 1h 6mn
Overall bit rate : 11.1 Mbps
Encoded date : UTC 2011-08-12 20:55:10
Writing application : mkvmerge v4.9.1 ('Ich will') built on Jul 11 2011 23:53:15
Writing library : libebml v1.2.1 + libmatroska v1.1.1
Attachment : Yes

Video
ID : 1
Format : AVC
Format/Info : Advanced Video Codec
Format profile : High@L4.1
Format settings, CABAC : Yes
Format settings, ReFrames : 4 frames
Codec ID : V_MPEG4/ISO/AVC
Duration : 1h 6mn
Bit rate : 9 392 Kbps
Width : 1 912 pixels
Height : 1 080 pixels
Display aspect ratio : 16:9
Frame rate : 29.970 fps
Color space : YUV
Chroma subsampling : 4:2:0
Bit depth : 8 bits
Scan type : Progressive
Bits/(Pixel*Frame) : 0.152
Stream size : 4.36 GiB (84%)
Title : x264 1912x1080 Bitrate=9611 kbps Average Quantizer=21.604 Rip by ShivaShanti
Writing library : x264 core 116 r2044 392e762
Encoding settings : cabac=1 / ref=4 / deblock=1:-1:-1 / analyse=0x3:0x133 / me=tesa / subme=10 / psy=1 / psy_rd=1.00:0.15 / mixed_ref=1 / me_range=32 / chroma_me=1 / trellis=2 / 8x8dct=1 / cqm=0 / deadzone=21,11 / fast_pskip=1 / chroma_qp_offset=-3 / threads=12 / sliced_threads=0 / nr=0 / decimate=1 / interlaced=0 / bluray_compat=0 / constrained_intra=0 / bframes=5 / b_pyramid=2 / b_adapt=2 / b_bias=0 / direct=3 / weightb=1 / open_gop=0 / weightp=2 / keyint=300 / keyint_min=29 / scenecut=40 / intra_refresh=0 / rc_lookahead=60 / rc=crf / mbtree=1 / crf=18.0 / qcomp=0.60 / qpmin=0 / qpmax=69 / qpstep=4 / ip_ratio=1.40 / aq=1:1.00
Default : Yes
Forced : No

Audio
ID : 2
Format : DTS
Format/Info : Digital Theater Systems
Codec ID : A_DTS
Duration : 1h 6mn
Bit rate mode : Constant
Bit rate : 1 510 Kbps
Channel(s) : 6 channels
Channel positions : Front: L C R, Side: L R, LFE
Sampling rate : 48.0 KHz
Bit depth : 24 bits
Compression mode : Lossy
Stream size : 718 MiB (14%)
Title : English DTS 5.1 chnls 1509 kbps
Language : English
Default : Yes
Forced : No

Menu
00:00:00.000 : en:00:00:00.000
00:03:14.261 : en:00:03:14.261
00:06:50.410 : en:00:06:50.410
00:10:12.078 : en:00:10:12.078
00:14:54.227 : en:00:14:54.227
00:19:15.388 : en:00:19:15.388
00:22:59.378 : en:00:22:59.378
00:25:03.936 : en:00:25:03.936
00:26:32.591 : en:00:26:32.591
00:30:10.442 : en:00:30:10.442
00:34:18.590 : en:00:34:18.590
00:37:14.632 : en:00:37:14.632
00:42:35.353 : en:00:42:35.353
00:46:38.062 : en:00:46:38.062
00:51:50.107 : en:00:51:50.107
00:58:29.139 : en:00:58:29.139
01:01:42.699 : en:01:01:42.699
01:04:28.865 : en:01:04:28.865
[/spoiler]
Se reprodujo sin ningun problema, audio y video sincronizados.



Transformers.Dark.Of.The.Moon.2011.1080p.BluRay.x264-SECTOR7.mkv
[spoiler]General
Unique ID : 222136353538885772473252519880087748067 (0xA71DE7CEF67F733EA3830AD13E9EBDE3)
Complete name : Transformers.Dark.Of.The.Moon.2011.1080p.BluRay.x264-SECTOR7.mkv
Format : Matroska
Format version : Version 2
File size : 9.83 GiB
Duration : 2h 34mn
Overall bit rate : 9 113 Kbps
Encoded date : UTC 2011-09-23 10:52:10
Writing application : mkvmerge v4.0.0 ('The Stars were mine') built on Jun 6 2010 16:18:42
Writing library : libebml v1.0.0 + libmatroska v1.0.0

Video
ID : 1
Format : AVC
Format/Info : Advanced Video Codec
Format profile : High@L4.1
Format settings, CABAC : Yes
Format settings, ReFrames : 5 frames
Codec ID : V_MPEG4/ISO/AVC
Duration : 2h 34mn
Bit rate : 8 475 Kbps
Width : 1 920 pixels
Height : 800 pixels
Display aspect ratio : 2.40:1
Frame rate : 23.976 fps
Color space : YUV
Chroma subsampling : 4:2:0
Bit depth : 8 bits
Scan type : Progressive
Bits/(Pixel*Frame) : 0.230
Stream size : 8.94 GiB (91%)
Writing library : x264 core 118 r2085 8a62835
Encoding settings : cabac=1 / ref=5 / deblock=1:0:0 / analyse=0x3:0x133 / me=umh / subme=8 / psy=1 / psy_rd=1.00:0.00 / mixed_ref=1 / me_range=16 / chroma_me=1 / trellis=1 / 8x8dct=1 / cqm=0 / deadzone=21,11 / fast_pskip=0 / chroma_qp_offset=-2 / threads=18 / sliced_threads=0 / nr=0 / decimate=1 / interlaced=0 / bluray_compat=0 / constrained_intra=0 / bframes=3 / b_pyramid=2 / b_adapt=1 / b_bias=0 / direct=1 / weightb=1 / open_gop=0 / weightp=2 / keyint=240 / keyint_min=24 / scenecut=40 / intra_refresh=0 / rc_lookahead=40 / rc=2pass / mbtree=1 / bitrate=8475 / ratetol=1.0 / qcomp=0.60 / qpmin=0 / qpmax=69 / qpstep=4 / cplxblur=20.0 / qblur=0.5 / ip_ratio=1.40 / aq=1:1.00
Language : English
Default : No
Forced : No

Audio
ID : 2
Format : AC-3
Format/Info : Audio Coding 3
Mode extension : CM (complete main)
Format settings, Endianness : Big
Codec ID : A_AC3
Duration : 2h 34mn
Bit rate mode : Constant
Bit rate : 640 Kbps
Channel(s) : 6 channels
Channel positions : Front: L C R, Side: L R, LFE
Sampling rate : 48.0 KHz
Bit depth : 16 bits
Compression mode : Lossy
Stream size : 707 MiB (7%)
Title : english
Language : English
Default : Yes
Forced : No
[/spoiler]
Fue reproducido medianamente bien, a ratos habia ciertos "tirones" en la reproduccion, sin embargo,
siempre estaba el video/audio en sincronia.

Bueno, esa fue una de las pruebas callampas que hice hoy.
En cuanto al wifi, sigue el problema, ningun avance hasta el momento, fue enviado el correo con videos
sobre el problema al "servicio al cliente" , estoy a la espera de respuesta/solucion.

Saludos, lnx.

Enlace al comentario
Compartir en otros sitios

  • 1 month later...

Finalmente deseche el utilizar el mini pc, uno de los problemas que trunco la experimentacion fueron
los problemas de conectividad wifi del aparato, pero esto se dio en mi caso particular solamente o
al menos eso creo, dado que poseo un router al cual le instale dd-wrt y funciona impecable, pero el
mini pc se conectaba y perdia la conexion en cosa de segundos, haciendo inusable el wifi, usando wpa2
era el problema en mi caso, si utilizaba wep funcionaba impecable.
Le pase el mini pc a un amigo para que lo vendiese y el lo probo en su casa y le funciono sin problemas
con wep y wpa2.

Aparte de lo anterior, el hecho de no haber querido invertir mas tiempo en lograr tener en linux el
modulo snd_usb_audio habilitado y que no venia incluido en las imagenes que instale, fue que decidi
no utilizar el mini pc ni ningun otro dispositivo con procesador ARM por el momento. Asi que compre
un mac mini antiguo powerpc.

Saludos, lnx.

Enlace al comentario
Compartir en otros sitios

  • 1 year later...

¿Es lo mismo con la mía? Acabo de recibir mi MK802 MINI ANDROID PC de 54 USD. Es a partir de [url="http://www.icebay.com/mk802-mini-android-pc-android-tv-box-android-4-0-a10-1g-ram-hdmi-tf-4gb-white.html"]aquí[/url].

Enlace al comentario
Compartir en otros sitios

Join the conversation

You can post now and register later. If you have an account, sign in now to post with your account.

Invitado
Responder en este tema...

×   Pasted as rich text.   Paste as plain text instead

  Only 75 emoji are allowed.

×   Your link has been automatically embedded.   Display as a link instead

×   Your previous content has been restored.   Clear editor

×   You cannot paste images directly. Upload or insert images from URL.

×
×
  • Crear Nuevo...